[老虎机游戏下载].Match.Point.720p.BluRay.x264.AC3-SCG[中英字幕/2.4G] – 网盘高速下载区_圣城家园_高清电影下载_720p高清

冠词以 煙椛、待续。 于 2011-2-9 13:22 编纂者


◎片  名 Match Point
◎年  代 2005
地区,地区,美国
◎类  别 情爱/剧情
◎语  言 英语
IMDB分  48,771 votes
IMDB相干
文件格式X264 + AC3

伍迪董事 艾伦 (伍迪 艾伦)
斯佳丽·约翰逊主演 Scarlett Johansson
乔纳森-莱斯-迈耶斯取自父名 Jonathan 里斯·迈耶斯取自父名
伍迪-艾伦 Woody Allen
布赖恩-考克斯 Brian Cox
◎简  介 
源自爱尔兰的穷年轻人克里斯托弗·威尔顿(乔纳森·里斯-迈耶斯取自父名)除非握住通身对网球有关运动的的可谓绝技那一边,险乎一贫如洗。马上他的绝技使下面所说的事心不在焉什么鸿运的人得到更侥幸。。英国的下层阶级一向因狂怒像田纳西这般的贵族政治论者有关运动的。,热诚地爱它,人们把它放在讲道台上吧。,贵族政治论者有关运动的的头衔足以让高官的们渴望。也于是,威尔顿,人家贫困儿童,逐步漏进贵族政治论者祖先。。

  威尔顿使渗透或沉溺在穷人采用。,敢情,欺骗激烈的趣味和神的对权利和莫的盼望。威尔顿常常和穷人混跟在后面,也逐步遗忘了他的原著。,什么阶级。在英国批发商亚历克斯·休伊特(布莱恩·考克斯)的家中临时旅客经历过后,威尔顿对放纵的的怪人,我也爱上了亚历克·休伊特的美丽鸡克洛伊·休伊特(艾米丽)。开明的的亚历克斯不光对女儿和P的爱认真,这也帮感到高兴尔顿向下层阶级大开了大门。,使那历史时期的穷年轻人如今握住了国富民强、花时期胜利的时机。这时,他也完整使渗透或沉溺在对克洛伊心爱的的爱中。。他们甚至到了正式的讨论婚姻生活的制约。

  就在此刻,威尔顿看法了与女士的哥哥合理的定婚的性感已婚妇女诺拉·里斯(斯嘉莉·约翰逊)。这样地美国女表演者以她使着迷的身长霎时降低价值了威尔顿的灵魂。。同时,诺拉也爱那宝石的爱尔兰伙伴。。就这般,音长杂乱的使某物衰微的情爱相干成建造。。一方面,它充实显示巨大热情,一面暖和的而有恒,男人和已婚妇女去哪里?……

【老虎机游戏下载】在2005年的戛纳影展中,固然它被选为看影片,但它是最深受欢迎的影片经过,同时实现200年金球奖,这部影片还实现了四分染色体估价。,来势汹汹。金奖导演伍迪·艾伦不断地,不断地在他的影片中描画各种各样的纽约人和纽约风光,不管到什么程度在新影片【情爱决胜点】中他却第一流的把方案和真实的剧中现场搬到大西洋的那个一面之词—伦敦。由于整部影片充实了过分戏剧化的的烦乱,因而它被吸收金球奖。,冠影片、冠导演、冠女合演者和冠方案,从其人们可以看出,这部影片的确有招引自己人看片机的力气。。

E:\扼杀MKV特意文件夹\老虎机游戏下载£圣城打佛\ 老虎机游戏下载.mkv
General
Complete name : E:\扼杀MKV特意文件夹\老虎机游戏下载£圣城打佛\ 老虎机游戏下载.mkv
Format : Matroska
File size : 2.40 GiB
Duration : 2h 3mn
Overall bit rate : 2 769 Kbps
Encoded date : UTC 2010-05-11 12:12:03
Writing application : mkvmerge v3.0.0 (挂 up your 挂断工具') 汇编为 Dec 12 2009 15:20:35
Writing library : libebml v0.7.9 + libmatroska v0.8.1
Video #1
ID : 1
Format : AVC
Format/Info : Advanced Video Codec
Format profile : High@L4.1
Format settings, CABAC : Yes
Format settings, ReFrames : 4 frames
Muxing mode : Container profile=Unknown@4.1
Codec ID : V_MPEG4/ISO/AVC
Duration : 2h 3mn
Bit rate : 2 330 Kbps
Nominal bit rate : 2 383 Kbps
Width : 1 280 pixels
Height : 688 pixels
Display aspect ratio : 1.860
Frame rate : 23.976 fps
Resolution : 8 bits
Colorimetry : 4:2:0
Scan type : Progressive
Bits/(Pixel*Frame) : 0.110
Stream size : 2.02 GiB (84%)
Writing library : x264 core 80 r1376M 3feaec2
Encoding settings : cabac=1 / ref=5 / deblock=1:-1:-1 / analyse=0x3:0x113 / me=umh / subme=9 / psy=1 / psy_rd=1.0:0.0 / mixed_ref=1 / me_range=32 / chroma_me=1 / trellis=1 / 8x8dct=1 / cqm=0 / deadzone=21,11 / fast_pskip=1 / chroma_qp_offset=-2 / threads=6 / sliced_threads=0 / nr=0 / decimate=1 / mbaff=0 / constrained_intra=0 / bframes=3 / b_pyramid=1 / b_adapt=2 / b_bias=0 / direct=1 / wpredb=1 / wpredp=2 / keyint=250 / keyint_min=25 / scenecut=40 / rc_lookahead=40 / rc=2pass / mbtree=1 / bitrate=2383 / ratetol=1.0 / qcomp=0.60 / qpmin=10 / qpmax=51 / qpstep=4 / cplxblur=20.0 / qblur=0.5 / ip_ratio=1.40 / aq=1:1.00
Language : English
Audio #2
ID : 2
Format : AC-3
Format/Info : Audio Coding 3
Codec ID : A_AC3
Duration : 2h 3mn
Bit rate mode : Constant
Bit rate : 384 Kbps
频道 : 5 channels
Channel positions : Front: L C R, Surround: L R
Sampling rate : 48.0 KHz
Stream size : 341 MiB (14%)
Text #3
ID : 3
Format : SSA
Codec ID : S_TEXT/SSA
Codec ID/Info : Sub Station Alpha
Title : 上、中、下英语
Text #4
ID : 4
Format : SSA
Codec ID : S_TEXT/SSA
Codec ID/Info : Sub Station Alpha
Title : 上英下中
Text #5
ID : 5
Format : UTF-8
Codec ID : S_TEXT/UTF8
Codec ID/Info : UTF-8 Plain Text
Title : 国文
Text #6
ID : 6
Format : UTF-8
Codec ID : S_TEXT/UTF8
Codec ID/Info : UTF-8 Plain Text
Title : 英文

发表评论

电子邮件地址不会被公开。 必填项已用*标注

`